<?xml version="1.0" standalone="no"?>
<!DOCTYPE svg PUBLIC "-//W3C//DTD SVG 1.1//EN" "http://www.w3.org/Graphics/SVG/1.1/DTD/svg11.dtd" >
<svg xmlns="http://www.w3.org/2000/svg">
<metadata>Generated by IcoMoon</metadata>
<defs>
<font id="icons-dubois" horiz-adv-x="1024">
<font-face units-per-em="1024" ascent="960" descent="-64" />
<missing-glyph horiz-adv-x="1024" />
<glyph unicode="&#x20;" horiz-adv-x="512" d="" />
<glyph unicode="&#xe900;" glyph-name="ico_account" horiz-adv-x="883" d="M876.8 140.8c-25.6 76.8-128 121.6-198.4 153.6-32 12.8-108.8 32-115.2 70.4-19.2 57.6 32 102.4 57.6 147.2 25.6 51.2 44.8 108.8 51.2 166.4 19.2 172.8-83.2 281.6-230.4 281.6s-249.6-108.8-236.8-281.6c6.4-57.6 25.6-115.2 51.2-166.4 25.6-44.8 83.2-89.6 64-140.8-12.8-38.4-89.6-57.6-115.2-70.4-70.4-32-172.8-76.8-198.4-153.6-6.4-32-6.4-64 0-96 44.8-108.8 294.4-115.2 435.2-115.2s390.4 6.4 435.2 108.8c6.4 32 6.4 64 0 96z" />
<glyph unicode="&#xe901;" glyph-name="ico_cart" horiz-adv-x="982" d="M704 186.24c-3.624-5.238-9.6-8.626-16.367-8.626-1.227 0-2.429 0.111-3.595 0.325l-438.918-0.018c-0.772-0.11-1.663-0.173-2.568-0.173-8.845 0-16.292 5.98-18.52 14.118l-0.031 0.135c-0.031 0.478-0.049 1.037-0.049 1.6s0.018 1.122 0.053 1.676c31.996 323.124-172.804 615.604-220.164 679.604-2.461 3.478-3.935 7.807-3.935 12.48s1.473 9.002 3.98 12.548l38.354 51.132c4.011 5.326 10.323 8.734 17.431 8.734 4.473 0 8.631-1.35 12.088-3.664l-0.079-3.15c64.457-66.944 114.446-148.302 144.625-238.724l743.695-4.476c19.84 0 28.8-12.16 19.2-29.44zM304 100.48c44.41-1.074 80-37.329 80-81.897 0-0.008 0-0.016 0-0.024v0.001c0.002-0.19 0.002-0.415 0.002-0.64 0-45.597-36.963-82.56-82.56-82.56s-82.56 36.963-82.56 82.56c0 45.596 36.962 82.559 82.557 82.56v0zM619.52 100.48v0c45.596-0.001 82.558-36.964 82.558-82.56s-36.963-82.56-82.56-82.56c-45.597 0-82.56 36.963-82.56 82.56 0 0.225 0.001 0.45 0.003 0.674v-0.034c0 45.243 36.677 81.92 81.92 81.92v0z" />
<glyph unicode="&#xe902;" glyph-name="ico_heart" d="M935.014 822.784c-54.552 53.661-129.442 86.79-212.070 86.79s-157.518-33.13-212.112-86.831c-54.511 53.701-129.401 86.831-212.029 86.831s-157.518-33.13-212.112-86.831c-54.199-53.060-87.826-127.031-87.826-208.856s33.627-155.795 87.816-208.846l424.192-418.866 424.141 418.816c54.24 53.101 87.867 127.071 87.867 208.896s-33.627 155.795-87.816 208.846z" />
<glyph unicode="&#xe903;" glyph-name="ico_email_on" d="M512 960c-282.77 0-512-229.23-512-512s229.23-512 512-512c282.77 0 512 229.23 512 512s-229.23 512-512 512zM749.807 618.667l-237.807-224.939-237.807 224.939h475.614zM256 600.576v0l157.594-149.163-157.594-155.307v304.469zM274.193 277.333l158.208 155.989 71.134-67.243c2.236-2.065 5.237-3.331 8.533-3.331s6.297 1.266 8.542 3.339l70.989 67.235 158.208-155.989h-475.614zM768 600.576v-304.469l-157.594 155.307 157.594 149.163z" />
<glyph unicode="&#xe904;" glyph-name="ico_calculator" d="M795.418 960h-566.835c-62.607-0.276-113.267-51.035-113.382-113.653v-796.683c0.116-62.629 50.775-113.388 113.356-113.664h566.862c62.607 0.276 113.267 51.035 113.382 113.653v796.683c-0.116 62.629-50.775 113.388-113.356 113.664zM371.2 89.6c0.040-0.517 0.062-1.119 0.062-1.726 0-13.219-10.717-23.936-23.936-23.936-0.608 0-1.21 0.023-1.806 0.067l-76.72-0.005c-0.525-0.041-1.137-0.064-1.754-0.064-13.205 0-23.91 10.705-23.91 23.91 0 0.617 0.023 1.229 0.069 1.835l-0.005 51.119c-0.041 0.525-0.064 1.137-0.064 1.754 0 13.205 10.705 23.91 23.91 23.91 0.617 0 1.229-0.023 1.835-0.069l76.719 0.005c0.517 0.040 1.119 0.062 1.726 0.062 13.219 0 23.936-10.717 23.936-23.936 0-0.608-0.023-1.21-0.067-1.806l0.005-51.12zM371.2 268.8c0.040-0.517 0.062-1.119 0.062-1.726 0-13.219-10.717-23.936-23.936-23.936-0.608 0-1.21 0.023-1.806 0.067l-76.72-0.005c-0.525-0.041-1.137-0.064-1.754-0.064-13.205 0-23.91 10.705-23.91 23.91 0 0.617 0.023 1.229 0.069 1.835l-0.005 51.119c-0.041 0.525-0.064 1.137-0.064 1.754 0 13.205 10.705 23.91 23.91 23.91 0.617 0 1.229-0.023 1.835-0.069l76.719 0.005c0.517 0.040 1.119 0.062 1.726 0.062 13.219 0 23.936-10.717 23.936-23.936 0-0.608-0.023-1.21-0.067-1.806l0.005-51.12zM371.2 448c0.040-0.517 0.062-1.119 0.062-1.726 0-13.219-10.717-23.936-23.936-23.936-0.608 0-1.21 0.023-1.806 0.067l-76.72-0.005c-0.525-0.041-1.137-0.064-1.754-0.064-13.205 0-23.91 10.705-23.91 23.91 0 0.617 0.023 1.229 0.069 1.835l-0.005 51.119c-0.041 0.525-0.064 1.137-0.064 1.754 0 13.205 10.705 23.91 23.91 23.91 0.617 0 1.229-0.023 1.835-0.069l76.719 0.005c0.517 0.040 1.119 0.062 1.726 0.062 13.219 0 23.936-10.717 23.936-23.936 0-0.608-0.023-1.21-0.067-1.806l0.005-51.12zM576 89.6c0.040-0.517 0.062-1.119 0.062-1.726 0-13.219-10.717-23.936-23.936-23.936-0.608 0-1.21 0.023-1.806 0.067l-76.72-0.005c-0.517-0.040-1.119-0.062-1.726-0.062-13.219 0-23.936 10.717-23.936 23.936 0 0.608 0.023 1.21 0.067 1.806l-0.005 51.12c-0.040 0.517-0.062 1.119-0.062 1.726 0 13.219 10.717 23.936 23.936 23.936 0.608 0 1.21-0.023 1.806-0.067l76.72 0.005c0.517 0.040 1.119 0.062 1.726 0.062 13.219 0 23.936-10.717 23.936-23.936 0-0.608-0.023-1.21-0.067-1.806l0.005-51.12zM576 268.8c0.040-0.517 0.062-1.119 0.062-1.726 0-13.219-10.717-23.936-23.936-23.936-0.608 0-1.21 0.023-1.806 0.067l-76.72-0.005c-0.517-0.040-1.119-0.062-1.726-0.062-13.219 0-23.936 10.717-23.936 23.936 0 0.608 0.023 1.21 0.067 1.806l-0.005 51.12c-0.040 0.517-0.062 1.119-0.062 1.726 0 13.219 10.717 23.936 23.936 23.936 0.608 0 1.21-0.023 1.806-0.067l76.72 0.005c0.517 0.040 1.119 0.062 1.726 0.062 13.219 0 23.936-10.717 23.936-23.936 0-0.608-0.023-1.21-0.067-1.806l0.005-51.12zM576 448c0.040-0.517 0.062-1.119 0.062-1.726 0-13.219-10.717-23.936-23.936-23.936-0.608 0-1.21 0.023-1.806 0.067l-76.72-0.005c-0.517-0.040-1.119-0.062-1.726-0.062-13.219 0-23.936 10.717-23.936 23.936 0 0.608 0.023 1.21 0.067 1.806l-0.005 51.12c-0.040 0.517-0.062 1.119-0.062 1.726 0 13.219 10.717 23.936 23.936 23.936 0.608 0 1.21-0.023 1.806-0.067l76.72 0.005c0.517 0.040 1.119 0.062 1.726 0.062 13.219 0 23.936-10.717 23.936-23.936 0-0.608-0.023-1.21-0.067-1.806l0.005-51.12zM780.8 89.6c0.004-0.17 0.006-0.369 0.006-0.57 0-13.827-11.209-25.037-25.037-25.037-0.2 0-0.4 0.002-0.599 0.007l-76.77-0.001c-0.154-0.003-0.335-0.005-0.517-0.005-13.856 0-25.088 11.232-25.088 25.088 0 0.182 0.002 0.363 0.006 0.544v230.373c-0.003 0.154-0.005 0.335-0.005 0.517 0 13.856 11.232 25.088 25.088 25.088 0.182 0 0.363-0.002 0.544-0.006h76.773c0.17 0.004 0.369 0.006 0.57 0.006 13.827 0 25.037-11.209 25.037-25.037 0-0.2-0.002-0.4-0.007-0.599l0.001-230.37zM780.8 448c-1.346-15.688-14.412-27.912-30.333-27.912-0.244 0-0.487 0.003-0.73 0.009l-71.337 2.303c-0.508-0.038-1.101-0.060-1.699-0.060-13.234 0-23.962 10.728-23.962 23.962 0 0.598 0.022 1.19 0.065 1.777l-0.005 51.121c-0.038 0.508-0.060 1.101-0.060 1.699 0 13.234 10.728 23.962 23.962 23.962 0.598 0 1.19-0.022 1.777-0.065l76.721 0.005c0.517 0.040 1.119 0.062 1.726 0.062 13.219 0 23.936-10.717 23.936-23.936 0-0.608-0.023-1.21-0.067-1.806l0.005-51.12zM806.4 704c-2.327-27.29-23.91-48.873-50.993-51.186l-486.607-0.014c-27.29 2.327-48.873 23.91-51.186 50.993l-0.014 77.007c2.327 27.29 23.91 48.873 50.993 51.186l486.607 0.014c27.29-2.327 48.873-23.91 51.186-50.993l0.014-77.007z" />
<glyph unicode="&#xe905;" glyph-name="ico_search" d="M835.209 879.953c-70.714 50.029-158.728 79.969-253.735 79.969-244.372 0-442.48-198.080-442.525-442.442-0.001-0.365-0.002-0.792-0.002-1.22 0-94.726 30.28-182.381 81.689-253.811l-220.637-219.215 107.988-107.233 218.997 218.997c70.797-50.171 158.948-80.199 254.112-80.199 244.484 0 442.677 198.193 442.677 442.677 0 149.32-73.93 281.372-187.184 361.55zM835.209 436.673c-41.706 0-75.516 33.81-75.516 75.516s0 0 0 0c-0.418 104.82-84.85 189.781-189.425 191.055-41.827 0.001-75.637 33.811-75.637 75.517s33.81 75.516 75.516 75.516c188.911-0.427 341.987-153.238 342.843-342.007 0-41.788-33.809-75.598-75.516-75.598z" />
<glyph unicode="&#xe906;" glyph-name="ico_hamburger" horiz-adv-x="1229" d="M1228.8 960h-1228.8v-204.8h1228.8v204.8zM1228.8 550.4h-1228.8v-204.8h1228.8v204.8zM1228.8 140.8h-1228.8v-204.8h1228.8v204.8z" />
<glyph unicode="&#xe907;" glyph-name="ico_loupe" d="M581.376 960c-244.218-0.727-441.97-198.629-442.453-442.834 0.041-95.060 30.276-183.005 81.628-254.815l-220.551-218.831 107.605-107.52 219.648 219.307c70.778-50.179 158.912-80.213 254.061-80.213 244.36 0 442.453 198.093 442.453 442.453 0 244.339-198.058 442.419-442.389 442.453zM581.376 226.987c-0.126 0-0.276 0-0.426 0-160.472 0-290.56 130.088-290.56 290.56s130.088 290.56 290.56 290.56c160.472 0 290.56-130.088 290.56-290.56 0-0.15 0-0.3 0-0.449-0.387-160.027-130.005-289.675-290.006-290.11z" />
<glyph unicode="&#xe908;" glyph-name="ico_email" horiz-adv-x="1536" d="M54.272 960l716.8-674.816 716.8 674.816zM0 905.728v-913.408l473.088 465.92-473.088 447.488zM1536 905.728l-473.088-447.488 473.088-465.92v913.408zM529.408 403.968l-475.136-467.968h1427.456l-475.136 467.968-212.992-204.8c-6.718-6.173-15.717-9.957-25.6-9.957s-18.882 3.784-25.627 9.982z" />
<glyph unicode="&#xe909;" glyph-name="ico_linkedin" d="M796.357 272.345c0 78.769 0 183.532-118.154 183.532s-136.271-87.434-136.271-178.018v-341.858h-226.855v708.923h218.191v-111.852c43.584 67.907 118.704 112.258 204.184 112.258 4.927 0 9.82-0.147 14.675-0.438 229.338 0.032 271.874-143.328 271.874-329.223v-379.668h-227.643zM0 644.923h236.308v-708.923h-236.308zM118.154 723.692c-65.255 0-118.154 52.899-118.154 118.154s52.899 118.154 118.154 118.154c65.255 0 118.154-52.899 118.154-118.154s-52.899-118.154-118.154-118.154z" />
<glyph unicode="&#xe90a;" glyph-name="ico_youtube" horiz-adv-x="1456" d="M1383.424 12.8c-37.006-37.733-88.443-61.196-145.362-61.44-204.846-15.36-512.046-15.36-512.046-15.36s-378.88 0-494.592 14.336c-61.568 1.034-117.451 24.551-159.976 62.668-29.358 40.305-49.761 89.33-56.933 142.552-8.67 71.626-13.86 153.393-14.51 236.24l-0.006 111.5c0.656 83.756 5.846 165.522 15.34 245.97 5.923 44.452 26.393 93.562 56.928 134.763 36.924 36.884 88.519 60.556 145.642 61.632 205.003 14.339 512.203 14.339 512.203 14.339v0s307.2 0 512-14.336c56.952-1.361 108.135-24.98 145.398-62.454 30.077-40.41 50.841-89.443 58.193-142.757l0.185-1.636c8.461-69.961 13.651-151.725 14.33-234.565l0.006-111.547c-0.621-83.71-5.812-165.476-15.338-245.914-7.819-44.888-29.941-93.853-61.976-134.669zM577.536 668.16v-409.6l393.216 204.8z" />
<glyph unicode="&#xe90b;" glyph-name="ico_facebook" horiz-adv-x="512" d="M512 639.634l-32.183-191.634h-159.451v-512h-192.366v512h-128v191.634h128v96.549c0 123.611 100.206 223.817 223.817 223.817h160.183v-192.366h-160.183c-0.002 0-0.005 0-0.008 0-17.517 0-31.765-13.995-32.174-31.413l-0.001-96.587h192.366z" />
<glyph unicode="&#xe90c;" glyph-name="ico_arrow_bottom" horiz-adv-x="1843" d="M1843.2 816.64l-163.84 143.36-757.76-737.28-757.76 737.28-163.84-143.36 778.24-737.28 143.36-143.36 143.36 143.36z" />
<glyph unicode="&#xe90d;" glyph-name="ico_arrow_left" horiz-adv-x="569" d="M568.889 27.022l-409.6 420.978 409.6 420.978-79.644 91.022-409.6-432.356-79.644-79.644 79.644-79.644 409.6-432.356z" />
<glyph unicode="&#xe90e;" glyph-name="ico_arrow_right" horiz-adv-x="569" d="M568.889 448v0l-79.644 79.644-409.6 432.356-79.644-91.022 409.6-420.978-409.6-420.978 79.644-91.022 409.6 432.356z" />
<glyph unicode="&#xe90f;" glyph-name="ico_arrow_top" horiz-adv-x="1843" d="M1843.2 79.36l-778.24 737.28-143.36 143.36-143.36-143.36-778.24-737.28 163.84-143.36 757.76 737.28 757.76-737.28z" />
<glyph unicode="&#xe910;" glyph-name="ico_arrow2_bottom" d="M455.111 960v-1024h113.778v1024h-113.778zM341.333 163.556h113.778v-113.778h-113.778v113.778zM227.556 277.333h113.778v-113.778h-113.778v113.778zM568.889 163.556h113.778v-113.778h-113.778v113.778zM682.667 277.333h113.778v-113.778h-113.778v113.778z" />
<glyph unicode="&#xe911;" glyph-name="ico_arrow2_left" d="M0 504.889h1024v-113.778h-1024v113.778zM113.778 618.667h113.778v-113.778h-113.778v113.778zM227.556 732.444h113.778v-113.778h-113.778v113.778zM113.778 391.111h113.778v-113.778h-113.778v113.778zM227.556 277.333h113.778v-113.778h-113.778v113.778z" />
<glyph unicode="&#xe912;" glyph-name="ico_arrow2_right" d="M0 504.889h1024v-113.778h-1024v113.778zM796.444 391.111h113.778v-113.778h-113.778v113.778zM682.667 277.333h113.778v-113.778h-113.778v113.778zM796.444 618.667h113.778v-113.778h-113.778v113.778zM682.667 732.444h113.778v-113.778h-113.778v113.778z" />
<glyph unicode="&#xe913;" glyph-name="ico_arrow2_top" d="M455.111 960h113.778v-1024h-113.778v1024zM568.889 846.222h113.778v-113.778h-113.778v113.778zM682.667 732.444h113.778v-113.778h-113.778v113.778zM341.333 846.222h113.778v-113.778h-113.778v113.778zM227.556 732.444h113.778v-113.778h-113.778v113.778z" />
<glyph unicode="&#xe915;" glyph-name="ico_checkbox_on" d="M921.6-64h-921.6v1024h1024v-1024h-102.4zM955.733 891.733h-887.467v-887.467h887.467v887.467zM307.2 754.517l204.8-204.117 204.8 204.117 102.4-102.4-204.8-204.117 204.8-204.117-102.4-102.4-204.8 204.117-204.8-204.117-102.4 102.4 204.8 204.117-204.8 204.117z" />
<glyph unicode="&#xe916;" glyph-name="ico_close" d="M93.252-64l930.682 930.55-93.055 93.45-930.682-930.55zM0.197 866.55l93.055 93.45 930.682-930.55-93.055-93.45z" />
<glyph unicode="&#xe917;" glyph-name="ico_delete" d="M171.301-62.537l851.822 851.383-170.423 169.691-851.822-851.383zM0.878 788.846l170.423 169.691 851.822-851.383-170.423-169.691z" />
<glyph unicode="&#xe918;" glyph-name="ico_edit" horiz-adv-x="1027" d="M1007.337-64.931l-239.244 38.167c-12.94 6.516-19.456 19.549-6.423 26.065l200.983 205.731c2.456 4.219 6.956 7.009 12.109 7.009 7.558 0 13.713-6.005 13.956-13.503l38.168-243.92c0.107-0.722 0.167-1.554 0.167-2.402 0-9.563-7.752-17.315-17.315-17.315-0.847 0-1.68 0.061-2.495 0.178zM709.446 83.084c-9.134-9.067-21.716-14.67-35.607-14.67s-26.474 5.603-35.61 14.673l-492.169 487.793c-8.973 9.090-14.515 21.585-14.515 35.375s5.542 26.285 14.521 35.38l181.336 173.144c9.319 8.647 21.843 13.953 35.607 13.953s26.289-5.306 35.641-13.984l491.952-487.766c9.049-7.813 14.741-19.3 14.741-32.116s-5.692-24.303-14.687-32.071zM74.845 686.313c-6.057-5.618-14.197-9.064-23.141-9.064-11.945 0-22.455 6.147-28.537 15.451-15.060 24.726-23.927 54.471-23.927 86.288 0 49.69 21.629 94.329 55.987 125.015 30.148 34.616 74.083 56.283 123.079 56.283 31.161 0 60.275-8.764 85.012-23.961 9.645-7.46 16.26-19.777 16.26-33.639 0-6.568-1.485-12.789-4.138-18.345z" />
<glyph unicode="&#xe919;" glyph-name="ico_hamburger_on" d="M512 960c-282.77 0-512-229.23-512-512s229.23-512 512-512c282.77 0 512 229.23 512 512-0.097 282.731-229.269 511.903-511.991 512zM680.96 327.168l-48.128-48.128-120.832 120.832-120.832-120.832-48.128 48.128 120.832 120.832-120.832 120.832 48.128 48.128 120.832-120.832 120.832 120.832 48.128-48.128-120.832-120.832z" />
<glyph unicode="&#xe91a;" glyph-name="ico_minus" d="M0 499.2h1024v-102.4h-1024v102.4z" />
<glyph unicode="&#xe91b;" glyph-name="ico_plus" d="M0 504.889v-113.778h1024v113.778h-1024zM455.111 960h113.778v-1024h-113.778v1024z" />
<glyph unicode="&#xe91c;" glyph-name="ico_star_off" horiz-adv-x="1026" d="M513.161 802.304l98.441-208.896 15.36-32.768 35.089-5.461 223.3-34.133-162.884-165.888-24.371-25.259 5.734-34.133 38.093-233.472-197.154 108.544-31.744 17.749-31.812-17.749-197.018-108.544 38.093 233.472 5.666 34.133-24.303 25.259-162.816 165.888 258.389 39.595 15.428 32.768 98.509 208.896zM513.161 960l-158.925-337.237-354.577-53.931 256.614-262.144-60.621-370.688 317.303 174.763 317.372-174.763-60.621 370.688 256.683 262.144-354.577 53.931-158.652 337.237z" />
<glyph unicode="&#xe91d;" glyph-name="ico_star_on" horiz-adv-x="1047" d="M523.947 960l161.929-337.237 361.813-53.931-261.939-262.144 61.85-370.688-323.857 174.763-323.789-174.763 61.85 370.688-261.803 262.144 361.813 53.931z" />
<glyph unicode="&#xe91e;" glyph-name="ico_update" d="M929.109 723.627l-53.76 211.627c-2.663 11.193-11.081 19.923-21.881 22.987-2.754 0.855-5.668 1.317-8.691 1.317-8.639 0-16.396-3.776-21.711-9.767l-94.917-99.87c-64.416 39.789-142.411 63.541-225.921 63.999-256.464-14.872-458.706-226.377-458.706-485.119s202.243-470.248 457.272-485.059c173.832 2.192 323.047 99.799 398.873 242.378l-143.869 89.508c-49.281-92.009-144.186-153.862-253.669-155.305-163.673 8.864-292.874 143.582-292.874 308.478s129.201 299.614 291.892 308.446c37.004-0.794 71.257-8.241 102.698-21.137l-74.521-76.109c-5.908-6.275-9.539-14.752-9.539-24.078 0-2.964 0.367-5.842 1.057-8.591 2.662-10.923 11.058-19.63 21.827-22.743l401.289-113.548c2.521-0.959 5.435-1.574 8.475-1.705 8.891 0.029 16.795 3.979 22.127 10.199 5.932 6.078 9.571 14.347 9.571 23.465 0 2.894-0.366 5.702-1.056 8.38z" />
<glyph unicode="&#xe91f;" glyph-name="ico_instagram" d="M686.080 448c0-98.027-80.995-177.493-180.907-177.493s-180.907 79.466-180.907 177.493c0 98.027 80.995 177.493 180.907 177.493s180.907-79.466 180.907-177.493zM723.627 960h-423.253c-163.84 0-300.373-133.12-300.373-293.547v-433.493c0-163.84 136.533-296.96 300.373-296.96h423.253c167.253 0 300.373 133.12 300.373 293.547v436.907c0 160.427-136.533 293.547-300.373 293.547zM512 185.173c-150.187 0-269.653 119.467-269.653 266.24s119.467 266.24 269.653 266.24 269.653-119.467 269.653-266.24-119.467-266.24-269.653-266.24zM798.72 700.587c-37.547 0-75.093 30.72-75.093 75.093s30.72 75.093 75.093 75.093 75.093-30.72 75.093-75.093-30.72-75.093-75.093-75.093z" />
<glyph unicode="&#xe920;" glyph-name="ico_pinterest" d="M518.827 960c-286.72 0-518.827-232.107-518.827-512 0-211.627 129.707-402.773 331.093-481.28-6.827 51.2-6.827 95.573 0 146.773 6.827 37.547 58.027 256 58.027 256-13.653 27.307-13.653 51.2-13.653 78.507-6.827 58.027 30.72 116.053 92.16 122.88 37.547 0 64.853-23.893 64.853-64.853v-6.827c-6.827-58.027-27.307-116.053-44.373-174.080-13.653-37.547 13.653-81.92 51.2-88.747 6.827 0 13.653 0 20.48 0 92.16 0 160.427 95.573 160.427 235.52 6.827 109.227-85.333 204.8-201.387 211.627-6.827 0-13.653 0-20.48 0-122.88 6.827-225.28-88.747-232.107-211.627 0-6.827 0-6.827 0-13.653 0-44.373 13.653-81.92 37.547-116.053 6.827-6.827 6.827-6.827 6.827-13.653-6.827-13.653-13.653-51.2-13.653-58.027s-6.827-13.653-20.48-6.827c-64.853 44.373-109.227 122.88-102.4 197.973 0 160.427 116.053 307.2 344.747 307.2 167.253 6.827 310.613-122.88 317.44-283.307 0-6.827 0-6.827 0-13.653 0-177.493-109.227-320.853-273.067-320.853-44.373 0-92.16 20.48-116.053 58.027 0 0-27.307-95.573-30.72-122.88-13.653-44.373-37.547-88.747-64.853-133.12 51.2-13.653 102.4-27.307 157.013-27.307 283.307 10.24 515.413 242.347 515.413 522.24 13.653 279.893-221.867 512-505.173 512z" />
</font>
</defs>
</svg>
